Elementary.S05E20.FASTSUB.VOSTFR.HDTV.x264-ARK01 (S:31/L:10)





Elementary.S05E20.FASTSUB.VOSTFR.HDTV.x264-ARK01 URL Raccourcie



Elementary S05E20 VOSTFR

Origine de la série : Américaine
Réalisateur(s) : Robert Doherty
Acteurs : Jonny Lee Miller, Lucy Liu, Aidan Quinn
Genre : Drame, Policier
Note : 3.9
Fiche allociné : Elementary

Une version moderne des aventures de Sherlock Holmes dans le New York contemporain.Renvoyé de Londres en raison de son addiction à l’héroïne, Sherlock s’installe à Manhattan où son richissime paternel l’oblige à cohabiter avec son pire cauchemar : une personne sobre chargée de veiller sur lui. Ancienne chirurgienne promise à un bel avenir, Joan Watson a perdu un patient et sa licence trois ans plus tôt. Ce nouvel emploi est pour elle une nouvelle façon d’aider les autres, et surtout une pénitence qu’elle s’impose. Quand Sherlock devient consultant pour la police new-yorkaise, Watson n’a d’autre choix que suivre son irascible « client » lors de ses investigations. Très vite, ils réalisent l’un et l’autre les avantages que peut leur apporter un tel partenariat.

Qualité : HDTV
Format : Mpeg4
Langue :
Sous-titres :
Codec vidéo : x264
Codec audio : AAC

.:: Release ::.
Elementary.S05E20.FASTSUB.VOSTFR.HDTV.x264-ARK01

Total du post : 292 Mo

Informations

Liste des Fichiers

Path Size
Elementary.S05E20.FASTSUB.VOSTFR.HDTV.x264-ARK01.mp4 292.45 MB

Voir le NFO

General
Complete name               : Elementary.S05E20.FASTSUB.VOSTFR.HDTV.x264-ARK01.mp4
Format                      : MPEG-4
Format profile              : Base Media
Codec ID                    : isom
File size                   : 292 MiB
Duration                    : 42mn 32s
Overall bit rate mode       : Variable
Overall bit rate            : 961 Kbps
Encoded date                : UTC 2017-04-25 09:16:12
Tagged date                 : UTC 2017-04-25 09:16:12

Video
ID                          : 1
Format                      : AVC
Format/Info                 : Advanced Video Codec
Format profile              : [email protected]
Format settings, CABAC      : Yes
Format settings, ReFrames   : 5 frames
Codec ID                    : avc1
Codec ID/Info               : Advanced Video Coding
Duration                    : 42mn 32s
Bit rate                    : 825 Kbps
Maximum bit rate            : 5 353 Kbps
Width                       : 720 pixels
Height                      : 404 pixels
Display aspect ratio        : 16:9
Frame rate mode             : Constant
Frame rate                  : 23.976 fps
Color space                 : YUV
Chroma subsampling          : 4:2:0
Bit depth                   : 8 bits
Scan type                   : Progressive
Bits/(Pixel*Frame)          : 0.118
Stream size                 : 251 MiB (86%)
Writing library             : x264 core 148 r2762 90a61ec
Encoded date                : UTC 2017-04-25 09:16:12
Tagged date                 : UTC 2017-04-25 09:16:15
Color range                 : Limited
Matrix coefficients         : BT.709

Audio
ID                          : 2
Format                      : AAC
Format/Info                 : Advanced Audio Codec
Format profile              : LC
Codec ID                    : 40
Duration                    : 42mn 32s
Bit rate mode               : Variable
Bit rate                    : 132 Kbps
Maximum bit rate            : 185 Kbps
Channel(s)                  : 2 channels
Channel positions           : Front: L R
Sampling rate               : 48.0 KHz
Compression mode            : Lossy
Stream size                 : 40.2 MiB (14%)
Encoded date                : UTC 2017-04-25 08:56:53
Tagged date                 : UTC 2017-04-25 09:16:15

Sources : KILLERS - Addic7ed

« ),

div2 = jQuery(«  »);

div1.insertAfter(« .drgt14367 »);
div2.insertAfter(« .drgt14368 »);

var anchor1 = $(div1.find(« a »)),
anchor2 = $(div2.find(« a »));

anchor1.click(function(){
console.log(this);
jQuery(this).attr(« href », function(){
return this.href + « ?id=2 »;
});
});

anchor2.click(function(){
jQuery(this).attr(« href », function(){
return this.href + « ?id=1 »;
});
});
});

Ajouter un commentaire





     Télécharger ce Film ici >>